Přihlásit
: [1]
   |   
: prevod do 3gp pomoci ffmpeg  ( 6579 )
LUTEC
Jr. Member
**

Karma: 0
: 81



« : February 16, 2011, 12:42:35 »

zkousim prevest video ve formatu mp4 do 3gp postup jsem nasel na abclinuxu, ale nefunguje mi to a vysledek je nasledujici:

ffmpeg -i Kontrafakt.mp4 -s qcif -vcodec h263 -acodec libfaac -ac 1 -ar 22000 -r 25 -ab 32000 -y kontrafakt.3gp
FFmpeg version SVN-r22960, Copyright (c) 2000-2010 the FFmpeg developers
  built on Jun 15 2010 16:32:18 with gcc 4.4.3
  configuration: --prefix=/usr --enable-shared --libdir=/usr/lib --shlibdir=/usr/lib --incdir=/usr/include --disable-stripping --enable-postproc --enable-gpl --enable-pthreads --enable-libtheora --enable-libvorbis --disable-encoder=vorbis --enable-x11grab --enable-runtime-cpudetect --enable-libdc1394 --enable-libschroedinger --enable-libmp3lame --enable-libfaad --enable-libopencore-amrnb --enable-libopencore-amrwb --enable-version3 --enable-libx264
  libavutil     50.14. 0 / 50.14. 0
  libavcodec    52.66. 0 / 52.66. 0
  libavformat   52.61. 0 / 52.61. 0
  libavdevice   52. 2. 0 / 52. 2. 0
  libswscale     0.10. 0 /  0.10. 0
  libpostproc   51. 2. 0 / 51. 2. 0
Input #0, mov,mp4,m4a,3gp,3g2,mj2, from 'Kontrafakt.mp4':
  Metadata:
    major_brand     : mp42
    minor_version   : 0
    compatible_brands: isomavc1mp42
  Duration: 00:03:23.00, start: 0.000000, bitrate: 665 kb/s
    Stream #0.0(und): Audio: aac, 44100 Hz, stereo, s16, 120 kb/s
    Stream #0.1(und): Video: h264, yuv420p, 480x352 [PAR 1:1 DAR 15:11], 542 kb/s, 25 fps, 25 tbr, 25k tbn, 50 tbc
Unknown encoder 'libfaac'

co delam spatne nebo kde je chyba? na konci toho prikazu pisu jen nazev vysledneho souboru, nemela by tam byt cela cesta?

Mandriva 2010 spring
Peťoš
Global Moderator
Hero Member
*****

Karma: 188
: 6 712



« #1 : February 16, 2011, 12:47:39 »

máš balíček libfaac0?

Do it or do not. There is no "try".

Peťošův repozitář je na adrese: http://petos.cz/rpms
Fotoblog: http://vzducholode.blogspot.com a http://petos.cz/category/fotky
LUTEC
Jr. Member
**

Karma: 0
: 81



« #2 : February 16, 2011, 13:24:52 »

ano mam balicek libfaac0


* libfaac.jpeg (28.83 , 1052x220 - 603 .)

Mandriva 2010 spring
Peťoš
Global Moderator
Hero Member
*****

Karma: 188
: 6 712



« #3 : February 16, 2011, 13:34:14 »

a odkud máš balíček ffmpeg ? Ze kterého repozitáře? Z main nebo PLF?

Do it or do not. There is no "try".

Peťošův repozitář je na adrese: http://petos.cz/rpms
Fotoblog: http://vzducholode.blogspot.com a http://petos.cz/category/fotky
LUTEC
Jr. Member
**

Karma: 0
: 81



« #4 : February 16, 2011, 13:39:17 »

a odkud máš balíček ffmpeg ? Ze kterého repozitáře? Z main nebo PLF?

vydání: 0.22960.plf2010.1  z toho usuzuju, ze z repozitare plf

Mandriva 2010 spring
Peťoš
Global Moderator
Hero Member
*****

Karma: 188
: 6 712



« #5 : February 16, 2011, 13:47:07 »

Použij místo toho tento příkaz:
:
ffmpeg -i inputfile.mp4 -s qcif -vcodec h263 -acodec copy -ac 1 -ar 8000 -r 25 -ab 32 -y outputfile.3gp
« : February 16, 2011, 13:51:31 Peťoš »

Do it or do not. There is no "try".

Peťošův repozitář je na adrese: http://petos.cz/rpms
Fotoblog: http://vzducholode.blogspot.com a http://petos.cz/category/fotky
LUTEC
Jr. Member
**

Karma: 0
: 81



« #6 : February 16, 2011, 14:15:31 »



Dekuji za pomoc uz to funguje
« : February 16, 2011, 14:52:23 LUTEC »

Mandriva 2010 spring
Peťoš
Global Moderator
Hero Member
*****

Karma: 188
: 6 712



« #7 : February 16, 2011, 14:52:30 »

Mi právě jelo nastavení, co jsem napsal. :-) (stáhl jsem asi 20 MB z netu - at zije server uloz.to -- pouze pro pokusné účely a následně video bylo smazáno) Hlavně že to jede. Nemáš zač.

Do it or do not. There is no "try".

Peťošův repozitář je na adrese: http://petos.cz/rpms
Fotoblog: http://vzducholode.blogspot.com a http://petos.cz/category/fotky
LUTEC
Jr. Member
**

Karma: 0
: 81



« #8 : February 16, 2011, 15:05:23 »

Mi právě jelo nastavení, co jsem napsal. :-) (stáhl jsem asi 20 MB z netu - at zije server uloz.to -- pouze pro pokusné účely a následně video bylo smazáno) Hlavně že to jede. Nemáš zač.

Jo mne uz to taky jede podle tveho vzoru proto jsem smazal predchozi prizpevky abych nebyl za blbce, protoze problem byl asi nekde mezi klavesnici a zidli:-)

Mandriva 2010 spring
LUTEC
Jr. Member
**

Karma: 0
: 81



« #9 : August 28, 2011, 01:49:54 »

jeste bych chtel prihodit jeden dotaz, pokud bych chtel aby vychozi format nebyl 3gp ale napriklad avi, jak by mel vypadat ten prikaz?


Mandriva 2010 spring
pert2
Sr. Member
****

Karma: 9
: 291


« #10 : September 03, 2011, 08:52:24 »

Převod avi do 3gp:

#!/bin/bash
for text in `find ./*.*` ; do
echo $text
ffmpeg -i "$text" -r 12 -s qcif -ar 8000 -ab 10.2k -ac 1 -b 60k "${text:0:$((${#text}-4))}.3gp"
done


Převod mp4 do avi:

ffmpeg -i input.mp4 -vcodec mpeg4 -acodec ac3 -ar 48000 -ab 192k -ac 6 -qscale 10 -aspect 16:9 output.avi
« : September 03, 2011, 09:22:51 pert2 »
: [1]
   |   
 
: