Přihlásit
: [1]
   |   
: ffserver a stream videa  ( 5889 )
strublos
Sr. Member
****

Karma: 9
: 336



« : May 15, 2011, 11:17:51 »

Ahoj, chtel bych zkusit stream videa pomoci ffserveru, ale nedari se mi vubec nic. Nemate s tim nekdo zkusenosti popripade nejaky navod? ffserver pustim (skoro vychozi configurak co jde s dokumentaci) ale pak nejsem schopen pomoci ffmpeg pridat soubor nebo cokoli a pokud dam do konfigurace serveru primo soubor tak jej zase nikde neprehraju (mplayer, vlc, ffplay).

Dik za rady

Hobil
Hero Member
*****

Karma: 58
: 4 006


« #1 : May 15, 2011, 11:41:24 »

tady http://ffmpeg.org/ffserver.html jsi asi koukal?

mam na mysli odstavec 2.1. - predpokladam, ze defaultne pouziva protokol RTSP, ktery ma nejake urcene porty
:
  # cat /etc/services |grep rtsp
rtsp 554/tcp # Real Time Stream Control Protocol
rtsp 554/udp # Real Time Stream Control Protocol

Z toho plyne, ze by jsi mel podle uvedeneho nastavit i fw. Koukni i na odstavec venovany LAME.

H.

Benzínem se nemá hasit ohniště
teď už je to jedno, ale pro příště... (K.P.)
strublos
Sr. Member
****

Karma: 9
: 336



« #2 : May 15, 2011, 13:09:04 »

Jj to jsem videl. ja mam hlavni problem v tom jak "naladovat" video obsah serveru aby to prehral a pustil dal. zkousim to vsechno na localhostu a FW mam vypnuty.

lame je nainstalovno a configurace je takove (mam to normalne z repozitare)

:
configuration: --prefix=/usr --enable-shared --libdir=/usr/lib --shlibdir=/usr/lib --incdir=/usr/include --disable-stripping --enable-postproc --enable-gpl --enable-pthreads --enable-libtheora --enable-libvorbis --disable-encoder=vorbis --enable-x11grab --enable-runtime-cpudetect --enable-libdc1394 --enable-libschroedinger --enable-libmp3lame --enable-libfaad --enable-libopencore-amrnb --enable-libopencore-amrwb --enable-version3 --enable-libx264
strublos
Sr. Member
****

Karma: 9
: 336



« #3 : May 15, 2011, 15:33:27 »

V podstate koncim na takoveto hlasce kdyz pustim ffmpeg -i video_soubor http://localhost:8090/feed1.ffm

Je jedno co tam strkam flv, avi, vob...

:
ffmpeg -i video.vob http://localhost:8090/feed1.ffm
FFmpeg version SVN-r22960, Copyright (c) 2000-2010 the FFmpeg developers
  built on Apr  1 2011 19:24:52 with gcc 4.4.3
  configuration: --prefix=/usr --enable-shared --libdir=/usr/lib --shlibdir=/usr/lib --incdir=/usr/include --disable-stripping --enable-postproc --enable-gpl --enable-pthreads --enable-libtheora --enable-libvorbis --disable-encoder=vorbis --enable-x11grab --enable-runtime-cpudetect --enable-libdc1394 --enable-libschroedinger --enable-libmp3lame --enable-libfaad --enable-libopencore-amrnb --enable-libopencore-amrwb --enable-version3 --enable-libx264
  libavutil     50.14. 0 / 50.14. 0
  libavcodec    52.66. 0 / 52.66. 0
  libavformat   52.61. 0 / 52.61. 0
  libavdevice   52. 2. 0 / 52. 2. 0
  libswscale     0.10. 0 /  0.10. 0
  libpostproc   51. 2. 0 / 51. 2. 0
[mpeg @ 0x938a440]max_analyze_duration reached
Input #0, mpeg, from 'video.vob':
  Duration: 00:30:22.63, start: 0.124733, bitrate: 4710 kb/s
    Stream #0.0[0x1e0]: Video: mpeg2video, yuv420p, 704x576 [PAR 12:11 DAR 4:3], 9548 kb/s, 25 fps, 25 tbr, 90k tbn, 50 tbc
    Stream #0.1[0x80]: Audio: ac3, 48000 Hz, stereo, s16, 256 kb/s
[mpeg1video @ 0x939f060]MPEG1/2 does not support 3/1 fps
Output #0, ffm, to 'http://localhost:8090/feed1.ffm':
    Stream #0.0: Audio: libmp3lame, 44100 Hz, 1 channels, s16, 32 kb/s
    Stream #0.1: Video: msmpeg4, yuv420p, 160x128, q=2-31, 64 kb/s, 1000k tbn, 3 tbc
    Stream #0.2: Video: flv, yuv420p, 160x128, q=2-31, 200 kb/s, 1000k tbn, 2 tbc
    Stream #0.3: Audio: libmp3lame, 22050 Hz, 1 channels, s16, 64 kb/s
    Stream #0.4: Video: msmpeg4, yuv420p, 352x240, q=2-31, 256 kb/s, 1000k tbn, 15 tbc
    Stream #0.5: Audio: mp2, 44100 Hz, 1 channels, s16, 32 kb/s
    Stream #0.6: Video: mpeg1video, yuv420p, 160x128, q=2-31, 64 kb/s, 1000k tbn, 3 tbc
Stream mapping:
  Stream #0.1 -> #0.0
  Stream #0.0 -> #0.1
  Stream #0.0 -> #0.2
  Stream #0.1 -> #0.3
  Stream #0.0 -> #0.4
  Stream #0.1 -> #0.5
  Stream #0.0 -> #0.6
Error while opening encoder for output stream #0.6 - maybe incorrect parameters such as bit_rate, rate, width or height
Hobil
Hero Member
*****

Karma: 58
: 4 006


« #4 : May 15, 2011, 16:12:54 »

nasel jsem tohle:
http://www.mail-archive.com/ffserver-user@mplayerhq.hu/msg00233.html
H.

Benzínem se nemá hasit ohniště
teď už je to jedno, ale pro příště... (K.P.)
strublos
Sr. Member
****

Karma: 9
: 336



« #5 : May 15, 2011, 20:18:01 »

Diky ale jestli tomu dobre rozumim tak tam neresi muj problem 
strublos
Sr. Member
****

Karma: 9
: 336



« #6 : May 15, 2011, 21:51:49 »

Nebo spis reknu co je cilem - mam telefon ktery prehrava videa z youtube (protokol rtsp a format 3gp), zkousel jsem i treba live ocko apod., tak jsem si rikal proc nezkusit prehravat vlastni obsah z pc do telefonu na lokalni siti? Jen takova hracka
Paur
Hero Member
*****

Karma: 31
: 1 416


http://pavel-linux.blogspot.com/

312891810
« #7 : May 16, 2011, 06:32:18 »

Nezkoušel jsi VLC? Ten myslím umí streamovat video po netu. Konkrétní zkušenost ale nemám...

NTB: Acer Extensa 5220 (Celeron 1,73 GHz,2GB), Mageia 2 32bit KDE 4.8.2)
PC: Intel C2D E4300,2GB,NVidiaGF7600GS,Mageia 2 32 bit KDE 4.8.2, WinXP Pro
Tablety: SmartQ V5-II (ARM 720 MHz, 256 MB, 2 GB, Android 2.1, Ubuntu 9.10 LXDE), Archos 101G9 (OMAP 2x1 GHz , 512 MB, Android 4)
strublos
Sr. Member
****

Karma: 9
: 336



« #8 : May 16, 2011, 08:34:34 »

Jj k vlv jsem se dostal ale rtsp stream mi shazuje telefon Chtel jsem nejak rozebrat 3gp z m.youtube.com abych zjistil potrebne parametry abych to mohl nejak prenastavit ale nedokaza jsem video v tomto formatu stahnout.
: [1]
   |   
 
: