Přihlásit
: 1 [2]
   |   
: Avidemux - proč nemohu sestříhat FullHD video?  ( 20370 )
Hobil
Hero Member
*****

Karma: 58
: 4 006


« #15 : June 15, 2011, 17:48:39 »

Nebylo by mozne rekneme minutovy usek takoveho videa nekam postnout? Na pokusy?
Predpokladam, ze ti to leze z kamery nebo nejakeho dvd recorderu (pravdepodobne sony).
H.

Benzínem se nemá hasit ohniště
teď už je to jedno, ale pro příště... (K.P.)
venca68
Jr. Member
**

Karma: -4
: 84


« #16 : June 16, 2011, 13:21:42 »

Predpokladam, ze ti to leze z kamery nebo nejakeho dvd recorderu (pravdepodobne sony).
H.

Ne, leze to ze satelitu (TOPFIELD SBP2010) - má USB výstup a když do něj vrazím flashku nebo připojím externí HDD, tak je z něj recorder.

Nebylo by mozne rekneme minutovy usek takoveho videa nekam postnout? Na pokusy?

To můžu, ale satelit mám na chalupě, tak až po víkendu. Videa, co jsem už nahrál, jsou v řádu GB.
Hobil
Hero Member
*****

Karma: 58
: 4 006


« #17 : June 16, 2011, 20:19:50 »

fajn, dodej vsechny soubory, co to vygeneruje.
H.

Benzínem se nemá hasit ohniště
teď už je to jedno, ale pro příště... (K.P.)
venca68
Jr. Member
**

Karma: -4
: 84


« #18 : June 17, 2011, 17:38:09 »

fajn, dodej vsechny soubory, co to vygeneruje.
H.

Tak jsem to nahrál na http://www.ulozto.cz/9403993/hdtv-7z.
1 složka HDTV (96252,5kB) a v ní 3 soubory:
Dobrodružství vědy a techniky, Azbest-3.rec
Dobrodružství vědy a techniky, Azbest-3.rec.inf
Dobrodružství vědy a techniky, Azbest-3.rec.nav

Budu vděčný za jakoukoliv radu.
Hobil
Hero Member
*****

Karma: 58
: 4 006


« #19 : June 18, 2011, 11:05:34 »

Puvodni soubor *.rec prehraje ffplay (/usr/bin/ffplay), ostatni soubory (*.inf a*.nav)  nejsou pro prehrani zapotrebi.

Konverze:
Pro jistotu na zacatku vezmi soubor *.rec, prejmenuj ho na *.mts
pak ho prekonvertuj na format dv, ktery prehraje kde co:
:
 /usr/bin/ffmpeg -threads 2  -i "/uplna_cesta/k_zdrojovemu_souboru/Pokus.mts" -target pal-dv  -aspect 16:9 -f dv "/uplna_cesta/k_vystupnimu_souboru/Pokus.dv"
Pro tenhle format ffmpeg umi 720*576, vic jsem z toho nedostal.
Pujde to snadno oskriptovat, budes-li to delat casteji

Dalsi moznosti je  napr. prevod do mpegu:
:
 /usr/bin/ffmpeg -threads 2  -i "/uplna_cesta/k_zdrojovemu_souboru/Pokus.mts" -f vcd -target pal-vcd -mbd rd -trellis -mv0 -cmp 0 -subcmp 2 -aspect 16:9 "/uplna_cesta/k_vystupnimu_souboru/Pokus.mpg"
tenhle prikaz snizi rozliseni na vhodne pro format PAL (352*288), tedy jeste nizzsi, nez predchozi.

no a asi nejjednodussi je prevod do avi/mpeg:
ffmpeg -i "Pokus.rec" -sameq  "Pokus.avi"
nebo
ffmpeg -i "Pokus.rec" -sameq  "Pokus.mpeg"
parametr -sameq zajisti, ze vystupni kvalita bude stejna, jako u vstupniho souboru.

atd, jde jen  o to, ze ffmpeg si s tim alespon nejak poradi. Na netu najdes tunu navodu pro prevody do jinych formatu, trebas padnes na neco, co ti bude vyhovovat. Bude to asi jen pro prikazovy radek.
Jo a az najdes vhodny zpusob, dej sem vedet.
H.
« : June 18, 2011, 12:17:39 Hobil »

Benzínem se nemá hasit ohniště
teď už je to jedno, ale pro příště... (K.P.)
venca68
Jr. Member
**

Karma: -4
: 84


« #20 : June 20, 2011, 12:51:35 »

Pro tenhle format ffmpeg umi 720*576, vic jsem z toho nedostal.

Jak už jsem psal v dotazu, šlo mi o rozlišení 1920×1080. 720×576 nemusím konvertovat, stačí nahrávat v TV kvalitě a v Avidemuxu bez problémů toto video ostříhám i s příponou .rec (už jsem to tu, tuším, někde psal).

Na netu najdes tunu navodu pro prevody do jinych formatu, trebas padnes na neco, co ti bude vyhovovat. Bude to asi jen pro prikazovy radek.
Jo a az najdes vhodny zpusob, dej sem vedet.

Začal jsem testovat aplikaci Kdenlive, ale jsem zatím ve stádiu pokusů. V mém PC se SW chová dost divně a často padá. Ještě se s tím pokusím poprat a pak dám vědět jak jsem dopadl, případně založím nové vlákno pro získání informací (něco už jsem si přečetl tady i jinde).
Každopádně mnohokrát děkuji za ochotu a čas, který mi všichni věnovali.
Hobil
Hero Member
*****

Karma: 58
: 4 006


« #21 : June 20, 2011, 16:03:45 »

Jak jsem psal tucne uvedene prikazy, ty zachovaji puvodni kvalitu (barevna hloubka, rozliseni, pocty snimku atd), ale vyrobi z toho editovatelne soubory mpeg ci avi. Ty uz v avidemuxu oteveres (zkousel jsem *.avi).
H.

Benzínem se nemá hasit ohniště
teď už je to jedno, ale pro příště... (K.P.)
venca68
Jr. Member
**

Karma: -4
: 84


« #22 : June 21, 2011, 07:50:46 »

Tak to jsem špatně pochopil. Zmátla mě ta sestupná kvalita rozlišení.
Tím AVI jsi měl začít, díky za nakopnutí - vyzkouším to.
Hobil
Hero Member
*****

Karma: 58
: 4 006


« #23 : June 21, 2011, 11:45:18 »

... Zmátla mě ta sestupná kvalita rozlišení.
Tím AVI jsi měl začít, díky za nakopnutí - vyzkouším to.
no - psal jsem to postupne tak, jak jsem to zkousel 
proto jsem to podstatne vytucnil 
H.

Benzínem se nemá hasit ohniště
teď už je to jedno, ale pro příště... (K.P.)
venca68
Jr. Member
**

Karma: -4
: 84


« #24 : June 22, 2011, 11:20:01 »

Tak jsem to vyzkoušel a uložený .avi soubor jde v Avidemuxu načíst a sestříhat. U .mpeg mi Avidemux nahlásil chybu a soubor nenačetl. Už v průběhu konverze se terminál chybovými hláškami jen červenal.
Mrzí mě však, že .avi soubor naroste na téměř dvojnásobek velikosti souboru .rec. (v případě hodinového filmu z 4,6GB na 9,2GB) a při konverzi nastaví ffmpeg zvukovou stopu pouze na 64kbps.

Vstup identifikuje ffmpeg takto:
Stream #0.0[0x7da]: Video: h264, yuv420p, 1920x1080 [PAR 1:1 DAR 16:9], 50.28 fps, 50 tbr, 90k tbn, 50 tbc
Stream #0.1[0x7e4](cze): Audio: mp2, 48000 Hz, 2 channels, s16, 256 kb/s
Stream #0.2[0x7e5](cze): Audio: ac3, 48000 Hz, stereo, s16, 448 kb/s
Stream #0.3[0x7e6](cze): Subtitle: dvbsub
Stream #0.4[0x7e7](qaa): Audio: mp2, 48000 Hz, 2 channels, s16, 192 kb/s

Výstup takto:
Stream #0.0: Video: mpeg4, yuv420p, 1920x1080 [PAR 1:1 DAR 16:9], q=2-31, 200 kb/s, 50 tbn, 50 tbc
Stream #0.1(cze): Audio: mp2, 48000 Hz, 2 channels, s16, 64 kb/s

Lze nějakým příkazem donutit ffmpeg, aby zachoval u zvuku původní bitrate?

Umí Avidemux uložit soubor větší než 4GB? Já jsem tedy nikde žádnou možnost změny nastavení nenašel a při střihu Avidemux vytvořil první 4GB soubor .avi, druhý 4GB soubor .avi01 a třetí 1,2GB .avi02. Půjdou tyto soubory nějakým příkazem zase spojit?
Hobil
Hero Member
*****

Karma: 58
: 4 006


« #25 : June 22, 2011, 16:08:53 »

spojeni avi souboru - utilita avimerge
:
  avimerge -o veliky.avi -i soubor1.avi soubor2.avi soubor3.avi
je soucasti balicku transcode-utils

bitrate zvuku - parametr pro ffmepg:
:
  -ab hodnota
defaultne je skutecne 64. "ab" je zrejme zkratka audio-bitrate, dobre se to pamatuje.
Pokud chcete mensi soubor, pak pouzijte nejaky komprimovany format pro vystup z avidemuxu, ale nutno pocitat s degradaci kvality. Eventuelne pohledat v man-pages ffmpegu jeho moznosti konverze do jinych formatu po sestrihani v avidemuxu.
Domnivam se, ze vsechny relevantni informace mate, zkuste taky neco pohledat sam.
H.

Benzínem se nemá hasit ohniště
teď už je to jedno, ale pro příště... (K.P.)
Hobil
Hero Member
*****

Karma: 58
: 4 006


« #26 : June 22, 2011, 16:37:40 »

jo a k tomu avidemuxu; kdyz si nastavis vystupni format na avi, pod roletkou se objevi tlacitko "nastavit". V nasledujicim okne muzes nastavit "rozdelit kazdych x MB", coz je to co potrebujes zmenit. Pokud by jsi to ale nekdy chtel hodit do woken, muzes narazit u nekterych filesystemu na problem nezkopirovatelnosti vetsich nez 4GB souboru.
H.

Benzínem se nemá hasit ohniště
teď už je to jedno, ale pro příště... (K.P.)
venca68
Jr. Member
**

Karma: -4
: 84


« #27 : June 24, 2011, 07:20:35 »

Díky za rady. Na netu už jsem nějaké tipy našel, tak budu o víkendu laborovat.
venca68
Jr. Member
**

Karma: -4
: 84


« #28 : June 26, 2011, 21:09:31 »

Tak jsem po testování dospěl k závěru, že nejlepší volbou pro mě je konverze do .mp4. Úspěšně jsem vyzkoušel ještě .avi, .mpeg1 i 2, a .flv. U .avi souboru byl obraz také kvalitní (jak u mp4 tak u avi je použit stejný kodek mpeg4), ale měl jsem při přehrávání pocit nepatrného trhání, ale je to vidět pouze při pohledu zblízka a je možné, že to způsobuje slabá GK (7600GT). U ostatních mi připadal obraz subjektivně nepatrně horší, dalo by se to však zřejmě doladit pomocí detailnějšího nastavení.
Pro převod jsem použil následující jednoduchý příkaz:

ffmpeg -i Podzim.rec -b 11000k -acodec mp2 -ab 256k -ss 00:03:15.440 -t 00:49:03.880 Podzim.mp4

ffmpeg pak nahlásí toto:

Stream #0.0: Video: mpeg4, yuv420p, 1920x1080 [PAR 1:1 DAR 16:9], q=2-31, 11000 kb/s, 50 tbn, 50 tbc
Stream #0.1(cze): Audio: mp2, 48000 Hz, 2 channels, s16, 256 kb/s


Soubor lze, jak je vidět z příkazu, ořezat přímo. Zde přináší absence klíčových snímků naopak výhodu - soubor lze sestříhat na snímek přesně. Avidemux tedy již není k sestříhání nutný a já jsem ho použil pouze pro zjištění přesného začátku a konce záznamu. Zde pouze upozorním, že parametr -ss je čas začátku střihu a parametr -t je požadovaná délka zaznamenaného videa (ne koncový bod střihu)
I když při převodu do .avi jsem se obešel v příkazu bez specifikace audio kodeku, při převodu do .mp4 musí být parametr -acodec uveden. Jinak mi to vyhodilo chybu. Příkaz pro převod do .avi vypadal takto:

ffmpeg -i Podzim.rec -b 11000k -ab 256k -ss 00:03:15.440 -t 00:01:00 pokus.avi

Nějak se nám to téma Avidemux zvrtlo na téma ffmpeg  . Díky všem za rady a tipy, především pak Hobilovi.
Hobil
Hero Member
*****

Karma: 58
: 4 006


« #29 : June 27, 2011, 11:22:56 »

OK,
jak vidno, konzolka je konzolka 
H.

Benzínem se nemá hasit ohniště
teď už je to jedno, ale pro příště... (K.P.)
: 1 [2]
   |   
 
: